Текстовый хостинг - Получите доступ к сохраненным данным из любой точки мира через Интернет
avatar
Whosts.ru

Гость 51 9th May, 2020

                                           
                         Общее
Полное имя                               : The shepherd.avi
Формат                                   : AVI
Формат/Информация                        : Audio Video Interleave
Размер файла                             : 231 Мбайт
Продолжительность                        : 20 м. 53 с.
Общий поток                              : 1 547 Кбит/сек
Программа кодирования                    : Lavf58.12.100

Видео
Идентификатор                            : 0
Формат                                   : AVC
Формат/Информация                        : Advanced Video Codec
Профиль формата                          : Baseline@L4.2
Настройки формата                        : 4 Ref Frames
Параметр CABAC формата                   : Нет
Параметр RefFrames формата               : 4 кадра
Параметр GOP формата                     : M=1, N=13
Идентификатор кодека                     : H264
Продолжительность                        : 20 м. 53 с.
Битрейт                                  : 1 337 Кбит/сек
Ширина                                   : 640 пикселей
Высота                                   : 360 пикселей
Соотношение сторон                       : 16:9
Частота кадров                           : 30,000 кадров/сек
Цветовое пространство                    : YUV
Субдискретизация насыщенности            : 4:2:0
Битовая глубина                          : 8 бит
Тип развёртки                            : Прогрессивная
Бит/(Пиксели*Кадры)                      : 0.193
Размер потока                            : 200 Мбайт (86%)

Аудио
Идентификатор                            : 1
Формат                                   : AAC LC
Формат/Информация                        : Advanced Audio Codec Low Complexity
Идентификатор кодека                     : FF-2
Продолжительность                        : 20 м. 53 с.
Битрейт                                  : 192 Кбит/сек
Каналы                                   : 2 канала
Channel layout                           : L R
Частота                                  : 48,0 КГц
Частота кадров                           : 46,875 кадров/сек (1024 SPF)
Метод сжатия                             : С потерями
Размер потока                            : 29,1 Мбайт (13%)
Выравнивание                             : Соединение по промежуткам
Продолжительность промежутка             : 21  мс. (0,64 видеокадр)

Общее
Полное имя                               : Избранные - The Chosen.s01e01.I Have Called You by Name - Я назвал тебя по имени.avi
Формат                                   : AVI
Формат/Информация                        : Audio Video Interleave
Размер файла                             : 597 Мбайт
Продолжительность                        : 54 м. 31 с.
Общий поток                              : 1 531 Кбит/сек
Программа кодирования                    : Lavf58.12.100

Видео
Идентификатор                            : 0
Формат                                   : AVC
Формат/Информация                        : Advanced Video Codec
Профиль формата                          : Baseline@L4.2
Настройки формата                        : 4 Ref Frames
Параметр CABAC формата                   : Нет
Параметр RefFrames формата               : 4 кадра
Параметр GOP формата                     : M=1, N=13
Идентификатор кодека                     : H264
Продолжительность                        : 54 м. 31 с.
Битрейт                                  : 1 337 Кбит/сек
Ширина                                   : 640 пикселей
Высота                                   : 360 пикселей
Соотношение сторон                       : 16:9
Частота кадров                           : 29,970 (30000/1001) кадров/сек
Цветовое пространство                    : YUV
Субдискретизация насыщенности            : 4:2:0
Битовая глубина                          : 8 бит
Тип развёртки                            : Прогрессивная
Бит/(Пиксели*Кадры)                      : 0.194
Размер потока                            : 521 Мбайт (87%)

Аудио
Идентификатор                            : 1
Формат                                   : AAC LC
Формат/Информация                        : Advanced Audio Codec Low Complexity
Идентификатор кодека                     : FF-2
Продолжительность                        : 54 м. 31 с.
Битрейт                                  : 192 Кбит/сек
Каналы                                   : 2 канала
Channel layout                           : L R
Частота                                  : 48,0 КГц
Частота кадров                           : 46,875 кадров/сек (1024 SPF)
Метод сжатия                             : С потерями
Размер потока                            : 69,9 Мбайт (12%)
Выравнивание                             : Разделение по промежуткам
Продолжительность промежутка             : 21  мс. (0,64 видеокадр)

Общее
Полное имя                               : Избранные - The Chosen.s01e02.Shabbat - Шаббат.avi
Формат                                   : AVI
Формат/Информация                        : Audio Video Interleave
Размер файла                             : 424 Мбайт
Продолжительность                        : 39 м. 1 с.
Общий поток                              : 1 521 Кбит/сек
Программа кодирования                    : Lavf58.12.100

Видео
Идентификатор                            : 0
Формат                                   : AVC
Формат/Информация                        : Advanced Video Codec
Профиль формата                          : Baseline@L4.2
Настройки формата                        : 4 Ref Frames
Параметр CABAC формата                   : Нет
Параметр RefFrames формата               : 4 кадра
Параметр GOP формата                     : M=1, N=13
Идентификатор кодека                     : H264
Продолжительность                        : 39 м. 1 с.
Битрейт                                  : 1 326 Кбит/сек
Ширина                                   : 640 пикселей
Высота                                   : 360 пикселей
Соотношение сторон                       : 16:9
Частота кадров                           : 29,970 (30000/1001) кадров/сек
Цветовое пространство                    : YUV
Субдискретизация насыщенности            : 4:2:0
Битовая глубина                          : 8 бит
Тип развёртки                            : Прогрессивная
Бит/(Пиксели*Кадры)                      : 0.192
Размер потока                            : 370 Мбайт (87%)

Аудио
Идентификатор                            : 1
Формат                                   : AAC LC
Формат/Информация                        : Advanced Audio Codec Low Complexity
Идентификатор кодека                     : FF-2
Продолжительность                        : 39 м. 1 с.
Битрейт                                  : 192 Кбит/сек
Каналы                                   : 2 канала
Channel layout                           : L R
Частота                                  : 48,0 КГц
Частота кадров                           : 46,875 кадров/сек (1024 SPF)
Метод сжатия                             : С потерями
Размер потока                            : 50,2 Мбайт (12%)
Выравнивание                             : Разделение по промежуткам
Продолжительность промежутка             : 21  мс. (0,64 видеокадр)

Общее
Полное имя                               : Избранные - The Chosen.s01e03.Jesus Loves the Little Children - Иисус любит маленьких детей.avi
Формат                                   : AVI
Формат/Информация                        : Audio Video Interleave
Размер файла                             : 333 Мбайт
Продолжительность                        : 30 м. 22 с.
Общий поток                              : 1 534 Кбит/сек
Программа кодирования                    : Lavf58.12.100

Видео
Идентификатор                            : 0
Формат                                   : AVC
Формат/Информация                        : Advanced Video Codec
Профиль формата                          : Baseline@L4.2
Настройки формата                        : 4 Ref Frames
Параметр CABAC формата                   : Нет
Параметр RefFrames формата               : 4 кадра
Параметр GOP формата                     : M=1, N=13
Идентификатор кодека                     : H264
Продолжительность                        : 30 м. 22 с.
Битрейт                                  : 1 339 Кбит/сек
Ширина                                   : 640 пикселей
Высота                                   : 360 пикселей
Соотношение сторон                       : 16:9
Частота кадров                           : 29,970 (30000/1001) кадров/сек
Цветовое пространство                    : YUV
Субдискретизация насыщенности            : 4:2:0
Битовая глубина                          : 8 бит
Тип развёртки                            : Прогрессивная
Бит/(Пиксели*Кадры)                      : 0.194
Размер потока                            : 291 Мбайт (87%)

Аудио
Идентификатор                            : 1
Формат                                   : AAC LC
Формат/Информация                        : Advanced Audio Codec Low Complexity
Идентификатор кодека                     : FF-2
Продолжительность                        : 30 м. 22 с.
Битрейт                                  : 192 Кбит/сек
Каналы                                   : 2 канала
Channel layout                           : L R
Частота                                  : 48,0 КГц
Частота кадров                           : 46,875 кадров/сек (1024 SPF)
Метод сжатия                             : С потерями
Размер потока                            : 39,1 Мбайт (12%)
Выравнивание                             : Разделение по промежуткам
Продолжительность промежутка             : 21  мс. (0,64 видеокадр)

Общее
Полное имя                               : Избранные - The Chosen.s01e04.The Rock on Which it is Built - Скала, на которой он построен.avi
Формат                                   : AVI
Формат/Информация                        : Audio Video Interleave
Размер файла                             : 533 Мбайт
Продолжительность                        : 48 м. 45 с.
Общий поток                              : 1 529 Кбит/сек
Программа кодирования                    : Lavf58.12.100

Видео
Идентификатор                            : 0
Формат                                   : AVC
Формат/Информация                        : Advanced Video Codec
Профиль формата                          : Baseline@L4.2
Настройки формата                        : 4 Ref Frames
Параметр CABAC формата                   : Нет
Параметр RefFrames формата               : 4 кадра
Параметр GOP формата                     : M=1, N=13
Идентификатор кодека                     : H264
Продолжительность                        : 48 м. 45 с.
Битрейт                                  : 1 334 Кбит/сек
Ширина                                   : 640 пикселей
Высота                                   : 360 пикселей
Соотношение сторон                       : 16:9
Частота кадров                           : 29,970 (30000/1001) кадров/сек
Цветовое пространство                    : YUV
Субдискретизация насыщенности            : 4:2:0
Битовая глубина                          : 8 бит
Тип развёртки                            : Прогрессивная
Бит/(Пиксели*Кадры)                      : 0.193
Размер потока                            : 465 Мбайт (87%)

Аудио
Идентификатор                            : 1
Формат                                   : AAC LC
Формат/Информация                        : Advanced Audio Codec Low Complexity
Идентификатор кодека                     : FF-2
Продолжительность                        : 48 м. 45 с.
Битрейт                                  : 192 Кбит/сек
Каналы                                   : 2 канала
Channel layout                           : L R
Частота                                  : 48,0 КГц
Частота кадров                           : 46,875 кадров/сек (1024 SPF)
Метод сжатия                             : С потерями
Размер потока                            : 62,9 Мбайт (12%)
Выравнивание                             : Разделение по промежуткам
Продолжительность промежутка             : 21  мс. (0,64 видеокадр)

Общее
Полное имя                               : Избранные - The Chosen.s01e05.The Wedding Gift - Свадебный подарок.avi
Формат                                   : AVI
Формат/Информация                        : Audio Video Interleave
Размер файла                             : 599 Мбайт
Продолжительность                        : 54 м. 36 с.
Общий поток                              : 1 533 Кбит/сек
Программа кодирования                    : Lavf58.12.100

Видео
Идентификатор                            : 0
Формат                                   : AVC
Формат/Информация                        : Advanced Video Codec
Профиль формата                          : Baseline@L4.2
Настройки формата                        : 4 Ref Frames
Параметр CABAC формата                   : Нет
Параметр RefFrames формата               : 4 кадра
Параметр GOP формата                     : M=1, N=13
Идентификатор кодека                     : H264
Продолжительность                        : 54 м. 36 с.
Битрейт                                  : 1 338 Кбит/сек
Ширина                                   : 640 пикселей
Высота                                   : 360 пикселей
Соотношение сторон                       : 16:9
Частота кадров                           : 29,970 (30000/1001) кадров/сек
Цветовое пространство                    : YUV
Субдискретизация насыщенности            : 4:2:0
Битовая глубина                          : 8 бит
Тип развёртки                            : Прогрессивная
Бит/(Пиксели*Кадры)                      : 0.194
Размер потока                            : 522 Мбайт (87%)

Аудио
Идентификатор                            : 1
Формат                                   : AAC LC
Формат/Информация                        : Advanced Audio Codec Low Complexity
Идентификатор кодека                     : FF-2
Продолжительность                        : 54 м. 36 с.
Битрейт                                  : 192 Кбит/сек
Каналы                                   : 2 канала
Channel layout                           : L R
Частота                                  : 48,0 КГц
Частота кадров                           : 46,875 кадров/сек (1024 SPF)
Метод сжатия                             : С потерями
Размер потока                            : 70,4 Мбайт (12%)
Выравнивание                             : Разделение по промежуткам
Продолжительность промежутка             : 21  мс. (0,64 видеокадр)

Общее
Полное имя                               : Избранные - The Chosen.s01e06.Indescribable Compassion - Неописуемое Сострадание.avi
Формат                                   : AVI
Формат/Информация                        : Audio Video Interleave
Размер файла                             : 567 Мбайт
Продолжительность                        : 51 м. 50 с.
Общий поток                              : 1 529 Кбит/сек
Программа кодирования                    : Lavf58.12.100

Видео
Идентификатор                            : 0
Формат                                   : AVC
Формат/Информация                        : Advanced Video Codec
Профиль формата                          : Baseline@L4.2
Настройки формата                        : 4 Ref Frames
Параметр CABAC формата                   : Нет
Параметр RefFrames формата               : 4 кадра
Параметр GOP формата                     : M=1, N=13
Идентификатор кодека                     : H264
Продолжительность                        : 51 м. 50 с.
Битрейт                                  : 1 334 Кбит/сек
Ширина                                   : 640 пикселей
Высота                                   : 360 пикселей
Соотношение сторон                       : 16:9
Частота кадров                           : 29,970 (30000/1001) кадров/сек
Цветовое пространство                    : YUV
Субдискретизация насыщенности            : 4:2:0
Битовая глубина                          : 8 бит
Тип развёртки                            : Прогрессивная
Бит/(Пиксели*Кадры)                      : 0.193
Размер потока                            : 494 Мбайт (87%)

Аудио
Идентификатор                            : 1
Формат                                   : AAC LC
Формат/Информация                        : Advanced Audio Codec Low Complexity
Идентификатор кодека                     : FF-2
Продолжительность                        : 51 м. 50 с.
Битрейт                                  : 192 Кбит/сек
Каналы                                   : 2 канала
Channel layout                           : L R
Частота                                  : 48,0 КГц
Частота кадров                           : 46,875 кадров/сек (1024 SPF)
Метод сжатия                             : С потерями
Размер потока                            : 66,7 Мбайт (12%)
Выравнивание                             : Разделение по промежуткам
Продолжительность промежутка             : 21  мс. (0,64 видеокадр)

Общее
Полное имя                               : Избранные - The Chosen.s01e07.Invitations - Приглашение.avi
Формат                                   : AVI
Формат/Информация                        : Audio Video Interleave
Размер файла                             : 407 Мбайт
Продолжительность                        : 37 м. 5 с.
Общий поток                              : 1 535 Кбит/сек
Программа кодирования                    : Lavf58.12.100

Видео
Идентификатор                            : 0
Формат                                   : AVC
Формат/Информация                        : Advanced Video Codec
Профиль формата                          : Baseline@L4.2
Настройки формата                        : 4 Ref Frames
Параметр CABAC формата                   : Нет
Параметр RefFrames формата               : 4 кадра
Параметр GOP формата                     : M=1, N=13
Идентификатор кодека                     : H264
Продолжительность                        : 37 м. 5 с.
Битрейт                                  : 1 339 Кбит/сек
Ширина                                   : 640 пикселей
Высота                                   : 360 пикселей
Соотношение сторон                       : 16:9
Частота кадров                           : 29,970 (30000/1001) кадров/сек
Цветовое пространство                    : YUV
Субдискретизация насыщенности            : 4:2:0
Битовая глубина                          : 8 бит
Тип развёртки                            : Прогрессивная
Бит/(Пиксели*Кадры)                      : 0.194
Размер потока                            : 355 Мбайт (87%)

Аудио
Идентификатор                            : 1
Формат                                   : AAC LC
Формат/Информация                        : Advanced Audio Codec Low Complexity
Идентификатор кодека                     : FF-2
Продолжительность                        : 37 м. 5 с.
Битрейт                                  : 192 Кбит/сек
Каналы                                   : 2 канала
Channel layout                           : L R
Частота                                  : 48,0 КГц
Частота кадров                           : 46,875 кадров/сек (1024 SPF)
Метод сжатия                             : С потерями
Размер потока                            : 48,0 Мбайт (12%)
Выравнивание                             : Разделение по промежуткам
Продолжительность промежутка             : 21  мс. (0,64 видеокадр)

Общее
Полное имя                               : Избранные - The Chosen.s01e08.I Am He - Я это Он.avi
Формат                                   : AVI
Формат/Информация                        : Audio Video Interleave
Размер файла                             : 640 Мбайт
Продолжительность                        : 58 м. 37 с.
Общий поток                              : 1 527 Кбит/сек
Программа кодирования                    : Lavf58.12.100

Видео
Идентификатор                            : 0
Формат                                   : AVC
Формат/Информация                        : Advanced Video Codec
Профиль формата                          : Baseline@L4.2
Настройки формата                        : 4 Ref Frames
Параметр CABAC формата                   : Нет
Параметр RefFrames формата               : 4 кадра
Параметр GOP формата                     : M=1, N=13
Идентификатор кодека                     : H264
Продолжительность                        : 58 м. 37 с.
Битрейт                                  : 1 338 Кбит/сек
Ширина                                   : 640 пикселей
Высота                                   : 360 пикселей
Соотношение сторон                       : 16:9
Частота кадров                           : 29,970 (30000/1001) кадров/сек
Цветовое пространство                    : YUV
Субдискретизация насыщенности            : 4:2:0
Битовая глубина                          : 8 бит
Тип развёртки                            : Прогрессивная
Бит/(Пиксели*Кадры)                      : 0.194
Размер потока                            : 561 Мбайт (88%)

Аудио
Идентификатор                            : 1
Формат                                   : AAC LC
Формат/Информация                        : Advanced Audio Codec Low Complexity
Идентификатор кодека                     : FF-2
Продолжительность                        : 58 м. 37 с.
Битрейт                                  : 192 Кбит/сек
Каналы                                   : 2 канала
Channel layout                           : L R
Частота                                  : 48,0 КГц
Частота кадров                           : 46,875 кадров/сек (1024 SPF)
Метод сжатия                             : С потерями
Размер потока                            : 72,8 Мбайт (11%)
Выравнивание                             : Разделение по промежуткам
Продолжительность промежутка             : 21  мс. (0,64 видеокадр)
                      
                                       
Поделись этим текстом, скопируй эту ссылку и отправь друзьям
RAW Paste Data
Последние Тексты