Текстовый хостинг - Получите доступ к сохраненным данным из любой точки мира через Интернет
avatar
Whosts.ru

Гость 81 25th Apr, 2020

                                           
                         Общее
Полное имя                               : E:\Star.Wars.Clone.Wars.H264.1080p\Star.Wars.Clone Wars.Volume.One.H264.1080p..mp4
Формат                                   : MPEG-4
Профиль формата                          : Base Media / Version 2
Идентификатор кодека                     : mp42 (mp42/isom)
Размер файла                             : 6,31 Гбайт
Продолжительность                        : 1 ч. 9 м.
Режим общего битрейта                    : Переменный
Общий поток                              : 13,0 Мбит/сек
Дата кодирования                         : UTC 2020-04-24 18:45:36
Дата пометки                             : UTC 2020-04-24 18:45:36

Видео
Идентификатор                            : 2
Формат                                   : AVC
Формат/Информация                        : Advanced Video Codec
Профиль формата                          : Main@L4
Настройки формата                        : CABAC / 3 Ref Frames
Параметр CABAC формата                   : Да
Параметр RefFrames формата               : 3 кадра
Параметр GOP формата                     : M=4, N=15
Идентификатор кодека                     : avc1
Идентификатор кодека/Информация          : Advanced Video Coding
Продолжительность                        : 1 ч. 9 м.
Вид битрейта                             : Переменный
Битрейт                                  : 12,8 Мбит/сек
Максимальный битрейт                     : 24,0 Мбит/сек
Ширина                                   : 1 920 пикселей
Высота                                   : 1 080 пикселей
Соотношение сторон                       : 16:9
Режим частоты кадров                     : Постоянный
Частота кадров                           : 29,970 (30000/1001) кадров/сек
Стандарт вещания                         : NTSC
Цветовое пространство                    : YUV
Субдискретизация насыщенности            : 4:2:0
Битовая глубина                          : 8 бит
Тип развёртки                            : Прогрессивная
Бит/(Пиксели*Кадры)                      : 0.206
Размер потока                            : 6,21 Гбайт (98%)
Язык                                     : English
Дата кодирования                         : UTC 2020-04-24 18:45:36
Дата пометки                             : UTC 2020-04-24 18:45:36
Цветовой диапазон                        : Limited
Codec configuration box                  : avcC

Аудио
Идентификатор                            : 1
Формат                                   : AAC LC
Формат/Информация                        : Advanced Audio Codec Low Complexity
Идентификатор кодека                     : mp4a-40-2
Продолжительность                        : 1 ч. 9 м.
Вид битрейта                             : Постоянный
Битрейт                                  : 192 Кбит/сек
Каналы                                   : 2 канала
Channel layout                           : L R
Частота                                  : 48,0 КГц
Частота кадров                           : 46,875 кадров/сек (1024 SPF)
Метод сжатия                             : С потерями
Размер потока                            : 95,6 Мбайт (1%)
Язык                                     : English
Дата кодирования                         : UTC 2020-04-24 18:45:36
Дата пометки                             : UTC 2020-04-24 18:45:36

Общее
Полное имя                               : E:\Star.Wars.Clone.Wars.H264.1080p\Star.Wars.Clone Wars.Volume.Two.H264.1080p..mp4
Формат                                   : MPEG-4
Профиль формата                          : Base Media / Version 2
Идентификатор кодека                     : mp42 (mp42/isom)
Размер файла                             : 6,23 Гбайт
Продолжительность                        : 1 ч. 3 м.
Режим общего битрейта                    : Переменный
Общий поток                              : 14,0 Мбит/сек
Дата кодирования                         : UTC 2020-04-24 22:55:23
Дата пометки                             : UTC 2020-04-24 22:55:23

Видео
Идентификатор                            : 2
Формат                                   : AVC
Формат/Информация                        : Advanced Video Codec
Профиль формата                          : Main@L4
Настройки формата                        : CABAC / 3 Ref Frames
Параметр CABAC формата                   : Да
Параметр RefFrames формата               : 3 кадра
Идентификатор кодека                     : avc1
Идентификатор кодека/Информация          : Advanced Video Coding
Продолжительность                        : 1 ч. 3 м.
Вид битрейта                             : Переменный
Битрейт                                  : 13,8 Мбит/сек
Максимальный битрейт                     : 24,0 Мбит/сек
Ширина                                   : 1 920 пикселей
Высота                                   : 1 080 пикселей
Соотношение сторон                       : 16:9
Режим частоты кадров                     : Постоянный
Частота кадров                           : 29,970 (30000/1001) кадров/сек
Стандарт вещания                         : NTSC
Цветовое пространство                    : YUV
Субдискретизация насыщенности            : 4:2:0
Битовая глубина                          : 8 бит
Тип развёртки                            : Прогрессивная
Бит/(Пиксели*Кадры)                      : 0.222
Размер потока                            : 6,14 Гбайт (99%)
Язык                                     : English
Дата кодирования                         : UTC 2020-04-24 22:55:23
Дата пометки                             : UTC 2020-04-24 22:55:23
Цветовой диапазон                        : Limited
Codec configuration box                  : avcC

Аудио
Идентификатор                            : 1
Формат                                   : AAC LC
Формат/Информация                        : Advanced Audio Codec Low Complexity
Идентификатор кодека                     : mp4a-40-2
Продолжительность                        : 1 ч. 3 м.
Вид битрейта                             : Постоянный
Битрейт                                  : 192 Кбит/сек
Каналы                                   : 2 канала
Channel layout                           : L R
Частота                                  : 48,0 КГц
Частота кадров                           : 46,875 кадров/сек (1024 SPF)
Метод сжатия                             : С потерями
Размер потока                            : 87,4 Мбайт (1%)
Язык                                     : English
Дата кодирования                         : UTC 2020-04-24 22:55:23
Дата пометки                             : UTC 2020-04-24 22:55:23
                      
                                       
Поделись этим текстом, скопируй эту ссылку и отправь друзьям
RAW Paste Data
Последние Тексты