Текстовый хостинг - Получите доступ к сохраненным данным из любой точки мира через Интернет
avatar
Whosts.ru

Гость 31 17th May, 2020

                                           
                         Уникальный идентификатор                 : 249674017783862166215599486653364750320 (0xBBD5777ADDC6A1C4814362FF4420C7F0)
Полное имя                               : D:\Тебе - атакующий класс!.mkv
Формат                                   : Matroska
Версия формата                           : Version 4
Размер файла                             : 262 Мбайт
Продолжительность                        : 17 м. 8 с.
Общий поток                              : 2136 Кбит/сек
Программа кодирования                    : Lavf56.36.100
Библиотека кодирования                   : Lavf56.36.100

Видео
Идентификатор                            : 1
Формат                                   : AVC
Формат/Информация                        : Advanced Video Codec
Профиль формата                          : Baseline@L1.3
Настройки формата                        : 2 Ref Frames
Параметр CABAC формата                   : Нет
Параметр RefFrames формата               : 2 кадра
Идентификатор кодека                     : V_MPEG4/ISO/AVC
Продолжительность                        : 17 м. 8 с.
Битрейт                                  : 2000 Кбит/сек
Ширина                                   : 320 пикселей
Высота                                   : 240 пикселей
Соотношение сторон                       : 16:9
Соотношение сторон в оригинале           : 16:9
Режим частоты кадров                     : Постоянный
Частота кадров                           : 25,000 кадров/сек
Цветовое пространство                    : YUV
Субдискретизация насыщенности            : 4:2:0
Битовая глубина                          : 8 бит
Тип развёртки                            : Прогрессивная
Бит/(Пиксели*Кадры)                      : 1.042
Размер потока                            : 241 Мбайт (92%)
Заголовок                                : VideoHandle
Библиотека кодирования                   : x264 core 148 r2579 73ae2d1
Настройки программы                      : cabac=0 / ref=2 / deblock=1:0:0 / analyse=0x1:0x111 / me=umh / subme=6 / psy=1 / psy_rd=1.00:0.00 / mixed_ref=1 / me_range=16 / chroma_me=1 / trellis=0 / 8x8dct=0 / cqm=0 / deadzone=21,11 / fast_pskip=1 / chroma_qp_offset=-2 / threads=7 / lookahead_threads=1 / sliced_threads=0 / nr=0 / decimate=1 / interlaced=0 / bluray_compat=0 / constrained_intra=0 / bframes=0 / weightp=0 / keyint=250 / keyint_min=25 / scenecut=40 / intra_refresh=0 / rc_lookahead=40 / rc=abr / mbtree=1 / bitrate=2000 / ratetol=1.0 / qcomp=0.60 / qpmin=0 / qpmax=69 / qpstep=4 / ip_ratio=1.40 / aq=1:1.00
Язык                                     : English
Default                                  : Да
Forced                                   : Нет
Дата кодирования                         : UTC 2020-03-30 06:49:59

Аудио
Идентификатор                            : 2
Формат                                   : MPEG Audio
Версия формата                           : Version 1
Профиль формата                          : Layer 3
Настройки формата                        : Joint stereo / MS Stereo
Идентификатор кодека                     : A_MPEG/L3
Идентификатор кодека/Подсказка           : MP3
Продолжительность                        : 17 м. 8 с.
Вид битрейта                             : Постоянный
Битрейт                                  : 128 Кбит/сек
Каналы                                   : 2 канала
Частота                                  : 44,1 КГц
Метод сжатия                             : С потерями
Задержка видео                           : -25 мс.
Размер потока                            : 15,7 Мбайт (6%)
Заголовок                                : SoundHandle
Библиотека кодирования                   : LAMEU0€
Язык                                     : English
Default                                  : Да
Forced                                   : Нет
Дата кодирования                         : UTC 2020-03-30 06:49:59
                      
                                       
Поделись этим текстом, скопируй эту ссылку и отправь друзьям
RAW Paste Data
Последние Тексты