Текстовый хостинг - Получите доступ к сохраненным данным из любой точки мира через Интернет
avatar
Whosts.ru

Гость 78 26th May, 2020

                                           
                         Полное имя                               : D:\DinDin protiv Zarja obezjan_Original.avi
Формат                                   : AVI
Формат/Информация                        : Audio Video Interleave
Размер файла                             : 557 Мбайт
Продолжительность                        : 31 м. 45 с.
Общий поток                              : 2453 Кбит/сек
Программа кодирования                    : Lavf56.36.100

Видео
Идентификатор                            : 0
Формат                                   : MPEG-4 Visual
Настройки формата                        : BVOP2 / QPel
Параметр BVOP формата                    : 2
Параметр QPel формата                    : Да
Параметр GMC формата                     : Без точки перехода
Параметр матрицы формата                 : Default (MPEG)
Режим смешивания                         : Сжатый битовый поток
Идентификатор кодека                     : DX50
Идентификатор кодека/Подсказка           : DivX 5
Продолжительность                        : 31 м. 45 с.
Битрейт                                  : 2335 Кбит/сек
Номинальный битрейт                      : 9027 Кбит/сек
Ширина                                   : 720 пикселей
Высота                                   : 544 пикселя
Соотношение сторон                       : 4:3
Частота кадров                           : 25,000 кадров/сек
Цветовое пространство                    : YUV
Субдискретизация насыщенности            : 4:2:0
Битовая глубина                          : 8 бит
Тип развёртки                            : Прогрессивная
Метод сжатия                             : С потерями
Бит/(Пиксели*Кадры)                      : 0.238
Размер потока                            : 531 Мбайт (95%)
Библиотека кодирования                   : DivX 6.8.5 (UTC 2009-08-20)

Аудио
Идентификатор                            : 1
Формат                                   : MPEG Audio
Версия формата                           : Version 1
Профиль формата                          : Layer 3
Настройки формата                        : Joint stereo / MS Stereo
Идентификатор кодека                     : 55
Идентификатор кодека/Подсказка           : MP3
Продолжительность                        : 26 м. 29 с.
Вид битрейта                             : Постоянный
Битрейт                                  : 128 Кбит/сек
Каналы                                   : 2 канала
Частота                                  : 44,1 КГц
Метод сжатия                             : С потерями
Размер потока                            : 24,3 Мбайт (4%)
Выравнивание                             : Соединение по промежуткам
Продолжительность промежутка             : 31  мс. (0,78 видеокадр)
Время предзагрузки промежутка            : 26  мс.
Библиотека кодирования                   : LAME3.99.5
                      
                                       
Поделись этим текстом, скопируй эту ссылку и отправь друзьям
RAW Paste Data
Последние Тексты