Текстовый хостинг - Получите доступ к сохраненным данным из любой точки мира через Интернет
avatar
Whosts.ru

Гость 39 12th May, 2020

                                           
                         General
Unique ID                   : 218710058810721733784652291509311504765 (0xA48A066F970182DE93FE3FD209E4017D)
Complete name               : E:\Kosty2099\Dark.S01-S02.1080p.KvK\Season 1\Dark.S01E01.1080p.KvK.mkv
Format                      : Matroska
Format version              : Version 4
File size                   : 3.42 GiB
Duration                    : 51 min 30 s
Overall bit rate            : 9 520 kb/s
Encoded date                : UTC 2020-05-12 15:09:44
Writing application         : mkvmerge v46.0.0 ('No Deeper Escape') 64-bit
Writing library             : libebml v1.3.10 + libmatroska v1.5.2
Cover                       : Yes
Attachments                 : cover.jpg

Video
ID                          : 1
Format                      : AVC
Format/Info                 : Advanced Video Codec
Format profile              : High@L4.1
Format settings             : CABAC / 4 Ref Frames
Format settings, CABAC      : Yes
Format settings, Reference  : 4 frames
Codec ID                    : V_MPEG4/ISO/AVC
Duration                    : 51 min 30 s
Bit rate                    : 8 688 kb/s
Width                       : 1 920 pixels
Height                      : 960 pixels
Display aspect ratio        : 2.000
Frame rate mode             : Constant
Frame rate                  : 24.000 FPS
Color space                 : YUV
Chroma subsampling          : 4:2:0
Bit depth                   : 8 bits
Scan type                   : Progressive
Bits/(Pixel*Frame)          : 0.196
Stream size                 : 3.13 GiB (91%)
Writing library             : x264 core 152 r2851kMod ba24899
Encoding settings           : cabac=1 / ref=4 / deblock=1:-3:-3 / analyse=0x3:0x133 / me=umh / subme=10 / psy=1 / fade_compensate=0.00 / psy_rd=1.00:0.00 / mixed_ref=1 / me_range=48 / chroma_me=1 / trellis=2 / 8x8dct=1 / cqm=0 / deadzone=21,11 / fast_pskip=0 / chroma_qp_offset=-2 / threads=48 / lookahead_threads=7 / sliced_threads=0 / nr=0 / decimate=0 / interlaced=0 / bluray_compat=0 / constrained_intra=0 / bframes=8 / b_pyramid=2 / b_adapt=2 / b_bias=0 / direct=3 / weightb=1 / open_gop=0 / weightp=2 / keyint=250 / keyint_min=24 / scenecut=40 / intra_refresh=0 / rc=crf / mbtree=0 / crf=17.0000 / qcomp=0.60 / qpmin=0 / qpmax=69 / qpstep=4 / ip_ratio=1.30 / pb_ratio=1.20 / aq=3:0.80
Language                    : English
Default                     : Yes
Forced                      : Yes

Audio #1
ID                          : 2
Format                      : AC-3
Format/Info                 : Audio Coding 3
Commercial name             : Dolby Digital
Codec ID                    : A_AC3
Duration                    : 51 min 16 s
Bit rate mode               : Constant
Bit rate                    : 384 kb/s
Channel(s)                  : 6 channels
Channel layout              : L R C LFE Ls Rs
Sampling rate               : 48.0 kHz
Frame rate                  : 31.250 FPS (1536 SPF)
Compression mode            : Lossy
Stream size                 : 141 MiB (4%)
Title                       : ПД (Кубик в Кубе)
Language                    : Russian
Service kind                : Complete Main
Default                     : Yes
Forced                      : Yes

Audio #2
ID                          : 3
Format                      : E-AC-3 JOC
Format/Info                 : Enhanced AC-3 with Joint Object Coding
Commercial name             : Dolby Digital Plus with Dolby Atmos
Codec ID                    : A_EAC3
Duration                    : 51 min 16 s
Bit rate mode               : Constant
Bit rate                    : 448 kb/s
Channel(s)                  : 6 channels
Channel layout              : L R C LFE Ls Rs
Sampling rate               : 48.0 kHz
Frame rate                  : 31.250 FPS (1536 SPF)
Compression mode            : Lossy
Stream size                 : 164 MiB (5%)
Title                       : Original
Language                    : German
Service kind                : Complete Main
Default                     : No
Forced                      : No
Complexity index            : 16
Number of dynamic objects   : 15
Bed channel count           : 1 channel
Bed channel configuration   : LFE

Text #1
ID                          : 4
Format                      : ASS
Codec ID                    : S_TEXT/ASS
Codec ID/Info               : Advanced Sub Station Alpha
Duration                    : 2 s 260 ms
Bit rate                    : 244 b/s
Count of elements           : 1
Compression mode            : Lossless
Stream size                 : 69.0 Bytes (0%)
Title                       : Force
Language                    : Russian
Default                     : Yes
Forced                      : Yes

Text #2
ID                          : 5
Format                      : UTF-8
Codec ID                    : S_TEXT/UTF8
Codec ID/Info               : UTF-8 Plain Text
Duration                    : 48 min 27 s
Bit rate                    : 70 b/s
Count of elements           : 466
Stream size                 : 25.1 KiB (0%)
Title                       : Full
Language                    : Russian
Default                     : No
Forced                      : No

Text #3
ID                          : 6
Format                      : UTF-8
Codec ID                    : S_TEXT/UTF8
Codec ID/Info               : UTF-8 Plain Text
Duration                    : 50 min 57 s
Bit rate                    : 40 b/s
Count of elements           : 468
Stream size                 : 15.0 KiB (0%)
Title                       : English
Language                    : English
Default                     : No
Forced                      : No

Text #4
ID                          : 7
Format                      : UTF-8
Codec ID                    : S_TEXT/UTF8
Codec ID/Info               : UTF-8 Plain Text
Duration                    : 47 min 54 s
Bit rate                    : 49 b/s
Count of elements           : 533
Stream size                 : 17.4 KiB (0%)
Title                       : German
Language                    : German
Default                     : No
Forced                      : No
                      
                                       
Поделись этим текстом, скопируй эту ссылку и отправь друзьям
RAW Paste Data
Последние Тексты