Общее Полное имя : C:\Users\Mikhail Podolski\Videos\4K Video Downloader\Сюда не залетали чайки.mp4 Формат : MPEG-4 Профиль формата : Base Media Идентификатор кодека : isom (isom/iso2/avc1/mp41) Размер файла : 1,13 Гбайт Продолжительность : 1 ч. 31 м. Общий поток : 1780 Кбит/сек Программа кодирования : Lavf58.20.100 Видео Идентификатор : 1 Формат : AVC Формат/Информация : Advanced Video Codec Профиль формата : Main@L3.1 Настройки формата : CABAC / 3 Ref Frames Параметр CABAC формата : Да Параметр RefFrames формата : 3 кадра Идентификатор кодека : avc1 Идентификатор кодека/Информация : Advanced Video Coding Продолжительность : 1 ч. 31 м. Duration_FirstFrame : -33 мс. Битрейт : 1644 Кбит/сек Ширина : 1280 пикселей Высота : 712 пикселей Соотношение сторон : 16:9 Режим частоты кадров : Переменный Частота кадров : 30,000 кадров/сек Минимальная частота кадров : 30,000 кадров/сек Максимальная частота кадров : 30,020 кадров/сек Цветовое пространство : YUV Субдискретизация насыщенности : 4:2:0 Битовая глубина : 8 бит Тип развёртки : Прогрессивная Бит/(Пиксели*Кадры) : 0.060 Размер потока : 1,05 Гбайт (92%) Цветовой диапазон : Limited Основные цвета : BT.709 Характеристики трансфера : BT.709 Коэффициенты матрицы : BT.709 Codec configuration box : avcC Аудио Идентификатор : 2 Формат : AAC LC Формат/Информация : Advanced Audio Codec Low Complexity Идентификатор кодека : mp4a-40-2 Продолжительность : 1 ч. 31 м. Вид битрейта : Постоянный Битрейт : 128 Кбит/сек Каналы : 2 канала ChannelLayout : L R Частота : 44,1 КГц Частота кадров : 43,066 кадра/сек (1024 SPF) Метод сжатия : С потерями Размер потока : 83,4 Мбайт (7%) Default : Да AlternateGroup/String : 1