Текстовый хостинг - Получите доступ к сохраненным данным из любой точки мира через Интернет
avatar
Whosts.ru

Гость 33 7th May, 2020

                                           
                         Общее
Уникальный идентификатор                 : 163045575467333474226936666897536480524 (0x7AA96F841649CE01FDECE9DA040F750C)
Полное имя                               : D:\Темная лига справедливости война апоколипса\Justice.League.Dark.Apokolips.War.2020.1080p.WEB-DL.H264.AC3-EVO.mkv
Формат                                   : Matroska
Версия формата                           : Version 4
Размер файла                             : 3,07 Гбайт
Продолжительность                        : 1 ч. 30 м.
Общий поток                              : 4 876 Кбит/сек
Дата кодирования                         : UTC 2020-05-04 22:38:36
Программа кодирования                    : mkvmerge v25.0.0 ('Prog Noir') 32-bit
Библиотека кодирования                   : libebml v1.3.6 + libmatroska v1.4.9

Видео
Идентификатор                            : 1
Формат                                   : AVC
Формат/Информация                        : Advanced Video Codec
Профиль формата                          : High@L4
Настройки формата                        : CABAC / 2 Ref Frames
Параметр CABAC формата                   : Да
Параметр RefFrames формата               : 2 кадра
Идентификатор кодека                     : V_MPEG4/ISO/AVC
Продолжительность                        : 1 ч. 30 м.
Битрейт                                  : 4 490 Кбит/сек
Ширина                                   : 1 920 пикселей
Высота                                   : 1 080 пикселей
Соотношение сторон                       : 16:9
Режим частоты кадров                     : Постоянный
Частота кадров                           : 23,976 (24000/1001) кадра/сек
Цветовое пространство                    : YUV
Субдискретизация насыщенности            : 4:2:0
Битовая глубина                          : 8 бит
Тип развёртки                            : Прогрессивная
Бит/(Пиксели*Кадры)                      : 0.090
Размер потока                            : 2,83 Гбайт (92%)
Библиотека кодирования                   : x264 core 155 r2901 7d0ff22
Default                                  : Да
Forced                                   : Нет
Цветовой диапазон                        : Limited
Основные цвета                           : BT.709
Характеристики трансфера                 : BT.709
Коэффициенты матрицы                     : BT.709

Аудио
Идентификатор                            : 2
Формат                                   : AC-3
Формат/Информация                        : Audio Coding 3
Коммерческое название                    : Dolby Digital
Идентификатор кодека                     : A_AC3
Продолжительность                        : 1 ч. 30 м.
Вид битрейта                             : Постоянный
Битрейт                                  : 384 Кбит/сек
Каналы                                   : 6 каналов
Channel layout                           : L R C LFE Ls Rs
Частота                                  : 48,0 КГц
Частота кадров                           : 31,250 кадров/сек (1536 SPF)
Метод сжатия                             : С потерями
Размер потока                            : 248 Мбайт (8%)
Язык                                     : English
Service kind                             : Complete Main
Default                                  : Да
Forced                                   : Нет
                      
                                       
Поделись этим текстом, скопируй эту ссылку и отправь друзьям
RAW Paste Data
Последние Тексты