Текстовый хостинг - Получите доступ к сохраненным данным из любой точки мира через Интернет
avatar
Whosts.ru

Гость 77 24th May, 2020

                                           
                         Format                      : Matroska
Format version              : Version 4 / Version 2
File size                   : 3.32 GiB
Duration                    : 48mn 15s
Overall bit rate            : 9 839 Kbps
Encoded date                : UTC 2020-05-14 20:47:56
Writing application         : mkvmerge v9.0.0 ('Power to progress') 64bit
Writing library             : libebml v1.3.3 + libmatroska v1.4.4

Video
ID                          : 1
Format                      : AVC
Format/Info                 : Advanced Video Codec
Format profile              : High@L4
Format settings, CABAC      : Yes
Format settings, ReFrames   : 4 frames
Codec ID                    : V_MPEG4/ISO/AVC
Duration                    : 48mn 15s
Bit rate mode               : Constant
Bit rate                    : 8 808 Kbps
Nominal bit rate            : 10 000 Kbps
Width                       : 1 920 pixels
Height                      : 1 080 pixels
Display aspect ratio        : 16:9
Frame rate mode             : Constant
Frame rate                  : 23.976 (24000/1001) fps
Color space                 : YUV
Chroma subsampling          : 4:2:0
Bit depth                   : 8 bits
Scan type                   : Progressive
Bits/(Pixel*Frame)          : 0.177
Stream size                 : 2.97 GiB (90%)
Language                    : English
Default                     : Yes
Forced                      : No
Color range                 : Limited
Color primaries             : BT.709
Transfer characteristics    : BT.709
Matrix coefficients         : BT.709

Audio #1
ID                          : 2
Format                      : AC-3
Format/Info                 : Audio Coding 3
Mode extension              : CM (complete main)
Format settings, Endianness : Big
Codec ID                    : A_AC3
Duration                    : 48mn 15s
Bit rate mode               : Constant
Bit rate                    : 384 Kbps
Channel(s)                  : 2 channels
Channel positions           : Front: L R
Sampling rate               : 48.0 KHz
Frame rate                  : 31.250 fps (1536 spf)
Compression mode            : Lossy
Stream size                 : 133 MiB (4%)
Title                       : TVShows
Language                    : Russian
Default                     : Yes
Forced                      : No

Audio #2
ID                          : 3
Format                      : E-AC-3
Format/Info                 : Audio Coding 3
Format settings, Endianness : Big
Codec ID                    : A_EAC3
Duration                    : 48mn 15s
Bit rate mode               : Constant
Bit rate                    : 640 Kbps
Channel(s)                  : 6 channels
Channel positions           : Front: L C R, Side: L R, LFE
Sampling rate               : 48.0 KHz
Frame rate                  : 187.500 fps (256 spf)
Compression mode            : Lossy
Stream size                 : 221 MiB (7%)
Title                       : Original
Language                    : English
Default                     : No
Forced                      : No

Text #1
ID                          : 4
Format                      : UTF-8
Codec ID                    : S_TEXT/UTF8
Codec ID/Info               : UTF-8 Plain Text
Duration                    : 45mn 54s
Bit rate                    : 107 bps
Count of elements           : 761
Stream size                 : 36.3 KiB (0%)
Title                       : Amazon
Language                    : Russian
Default                     : No
Forced                      : No

Text #2
ID                          : 5
Format                      : UTF-8
Codec ID                    : S_TEXT/UTF8
Codec ID/Info               : UTF-8 Plain Text
Duration                    : 46mn 5s
Bit rate                    : 72 bps
Count of elements           : 894
Stream size                 : 24.3 KiB (0%)
Title                       : SDH
Language                    : English
Default                     : No
Forced                      : No

Text #3
ID                          : 6
Format                      : UTF-8
Codec ID                    : S_TEXT/UTF8
Codec ID/Info               : UTF-8 Plain Text
Duration                    : 45mn 54s
Bit rate                    : 118 bps
Count of elements           : 770
Stream size                 : 39.8 KiB (0%)
Language                    : Arabic
Default                     : No
Forced                      : No

Text #4
ID                          : 7
Format                      : UTF-8
Codec ID                    : S_TEXT/UTF8
Codec ID/Info               : UTF-8 Plain Text
Duration                    : 45mn 54s
Bit rate                    : 67 bps
Count of elements           : 749
Stream size                 : 22.5 KiB (0%)
Language                    : Danish
Default                     : No
Forced                      : No

Text #5
ID                          : 8
Format                      : UTF-8
Codec ID                    : S_TEXT/UTF8
Codec ID/Info               : UTF-8 Plain Text
Duration                    : 45mn 54s
Bit rate                    : 71 bps
Count of elements           : 599
Stream size                 : 24.1 KiB (0%)
Language                    : German
Default                     : No
Forced                      : No

Text #6
ID                          : 9
Format                      : UTF-8
Codec ID                    : S_TEXT/UTF8
Codec ID/Info               : UTF-8 Plain Text
Duration                    : 45mn 54s
Bit rate                    : 68 bps
Count of elements           : 754
Stream size                 : 23.0 KiB (0%)
Title                       : Latinoamerica
Language                    : Spanish
Default                     : No
Forced                      : No

Text #7
ID                          : 10
Format                      : UTF-8
Codec ID                    : S_TEXT/UTF8
Codec ID/Info               : UTF-8 Plain Text
Duration                    : 45mn 54s
Bit rate                    : 71 bps
Count of elements           : 753
Stream size                 : 24.0 KiB (0%)
Title                       : Espana
Language                    : Spanish
Default                     : No
Forced                      : No

Text #8
ID                          : 11
Format                      : UTF-8
Codec ID                    : S_TEXT/UTF8
Codec ID/Info               : UTF-8 Plain Text
Duration                    : 45mn 54s
Bit rate                    : 63 bps
Count of elements           : 754
Stream size                 : 21.3 KiB (0%)
Language                    : Finnish
Default                     : No
Forced                      : No

Text #9
ID                          : 12
Format                      : UTF-8
Codec ID                    : S_TEXT/UTF8
Codec ID/Info               : UTF-8 Plain Text
Duration                    : 45mn 54s
Bit rate                    : 63 bps
Count of elements           : 756
Stream size                 : 21.3 KiB (0%)
Language                    : French
Default                     : No
Forced                      : No

Text #10
ID                          : 13
Format                      : UTF-8
Codec ID                    : S_TEXT/UTF8
Codec ID/Info               : UTF-8 Plain Text
Duration                    : 45mn 54s
Bit rate                    : 105 bps
Count of elements           : 761
Stream size                 : 35.6 KiB (0%)
Language                    : Hebrew
Default                     : No
Forced                      : No

Text #11
ID                          : 14
Format                      : UTF-8
Codec ID                    : S_TEXT/UTF8
Codec ID/Info               : UTF-8 Plain Text
Duration                    : 45mn 54s
Bit rate                    : 178 bps
Count of elements           : 770
Stream size                 : 60.0 KiB (0%)
Language                    : Hindi
Default                     : No
Forced                      : No

Text #12
ID                          : 15
Format                      : UTF-8
Codec ID                    : S_TEXT/UTF8
Codec ID/Info               : UTF-8 Plain Text
Duration                    : 45mn 54s
Bit rate                    : 59 bps
Count of elements           : 767
Stream size                 : 19.9 KiB (0%)
Language                    : Indonesian
Default                     : No
Forced                      : No

Text #13
ID                          : 16
Format                      : UTF-8
Codec ID                    : S_TEXT/UTF8
Codec ID/Info               : UTF-8 Plain Text
Duration                    : 45mn 54s
Bit rate                    : 67 bps
Count of elements           : 753
Stream size                 : 22.5 KiB (0%)
Language                    : Italian
Default                     : No
Forced                      : No

Text #14
ID                          : 17
Format                      : UTF-8
Codec ID                    : S_TEXT/UTF8
Codec ID/Info               : UTF-8 Plain Text
Duration                    : 45mn 54s
Bit rate                    : 55 bps
Count of elements           : 744
Stream size                 : 18.7 KiB (0%)
Language                    : Japanese
Default                     : No
Forced                      : No

Text #15
ID                          : 18
Format                      : UTF-8
Codec ID                    : S_TEXT/UTF8
Codec ID/Info               : UTF-8 Plain Text
Duration                    : 45mn 54s
Bit rate                    : 74 bps
Count of elements           : 761
Stream size                 : 25.0 KiB (0%)
Language                    : Korean
Default                     : No
Forced                      : No

Text #16
ID                          : 19
Format                      : UTF-8
Codec ID                    : S_TEXT/UTF8
Codec ID/Info               : UTF-8 Plain Text
Duration                    : 45mn 54s
Bit rate                    : 62 bps
Count of elements           : 757
Stream size                 : 21.0 KiB (0%)
Language                    : Norwegian Bokmal
Default                     : No
Forced                      : No

Text #17
ID                          : 20
Format                      : UTF-8
Codec ID                    : S_TEXT/UTF8
Codec ID/Info               : UTF-8 Plain Text
Duration                    : 45mn 54s
Bit rate                    : 61 bps
Count of elements           : 757
Stream size                 : 20.6 KiB (0%)
Language                    : Dutch
Default                     : No
Forced                      : No

Text #18
ID                          : 21
Format                      : UTF-8
Codec ID                    : S_TEXT/UTF8
Codec ID/Info               : UTF-8 Plain Text
Duration                    : 45mn 54s
Bit rate                    : 56 bps
Count of elements           : 750
Stream size                 : 19.1 KiB (0%)
Language                    : Polish
Default                     : No
Forced                      : No

Text #19
ID                          : 22
Format                      : UTF-8
Codec ID                    : S_TEXT/UTF8
Codec ID/Info               : UTF-8 Plain Text
Duration                    : 45mn 54s
Bit rate                    : 64 bps
Count of elements           : 758
Stream size                 : 21.7 KiB (0%)
Language                    : Portuguese
Default                     : No
Forced                      : No

Text #20
ID                          : 23
Format                      : UTF-8
Codec ID                    : S_TEXT/UTF8
Codec ID/Info               : UTF-8 Plain Text
Duration                    : 45mn 54s
Bit rate                    : 65 bps
Count of elements           : 753
Stream size                 : 22.0 KiB (0%)
Language                    : Swedish
Default                     : No
Forced                      : No

Text #21
ID                          : 24
Format                      : UTF-8
Codec ID                    : S_TEXT/UTF8
Codec ID/Info               : UTF-8 Plain Text
Duration                    : 45mn 54s
Bit rate                    : 210 bps
Count of elements           : 770
Stream size                 : 70.8 KiB (0%)
Language                    : Tamil
Default                     : No
Forced                      : No

Text #22
ID                          : 25
Format                      : UTF-8
Codec ID                    : S_TEXT/UTF8
Codec ID/Info               : UTF-8 Plain Text
Duration                    : 45mn 54s
Bit rate                    : 189 bps
Count of elements           : 761
Stream size                 : 63.7 KiB (0%)
Language                    : Telugu
Default                     : No
Forced                      : No

Text #23
ID                          : 26
Format                      : UTF-8
Codec ID                    : S_TEXT/UTF8
Codec ID/Info               : UTF-8 Plain Text
Duration                    : 45mn 54s
Bit rate                    : 170 bps
Count of elements           : 770
Stream size                 : 57.2 KiB (0%)
Language                    : Thai
Default                     : No
Forced                      : No

Text #24
ID                          : 27
Format                      : UTF-8
Codec ID                    : S_TEXT/UTF8
Codec ID/Info               : UTF-8 Plain Text
Duration                    : 45mn 54s
Bit rate                    : 59 bps
Count of elements           : 758
Stream size                 : 20.0 KiB (0%)
Language                    : Turkish
Default                     : No
Forced                      : No

Text #25
ID                          : 28
Format                      : UTF-8
Codec ID                    : S_TEXT/UTF8
Codec ID/Info               : UTF-8 Plain Text
Duration                    : 45mn 54s
Bit rate                    : 64 bps
Count of elements           : 770
Stream size                 : 21.7 KiB (0%)
Title                       : ??(??)
Language                    : Chinese
Default                     : No
Forced                      : No

Text #26
ID                          : 29
Format                      : UTF-8
Codec ID                    : S_TEXT/UTF8
Codec ID/Info               : UTF-8 Plain Text
Duration                    : 45mn 54s
Bit rate                    : 60 bps
Count of elements           : 770
Stream size                 : 20.3 KiB (0%)
Title                       : ??(??)
Language                    : Chinese
Default                     : No
Forced                      : No

Menu
00:00:00.000                : en:Amazon Original
00:00:05.000                : en:Previously On
00:04:00.000                : en:Theft at the hospital
00:06:42.000                : en:Opening Credits
00:07:43.000                : en:A new case
00:08:41.000                : en:Stake out
00:09:10.000                : en:Investigating a murder
00:12:10.000                : en:Staking out dirty cops
00:13:23.000                : en:A lunch about Irvin's campaign
00:15:41.000                : en:Arriving at the Kent house
00:17:50.000                : en:Hiring a campaign manager
00:18:09.000                : en:Interviewing the wife
00:20:48.000                : en:Looking at the lab
00:21:56.000                : en:The FBI arrives
00:22:19.000                : en:Working together
00:24:37.000                : en:Talking to Lt. Billets
00:25:13.000                : en:A new pro bono case
00:26:20.000                : en:Irvin makes demands
00:26:32.000                : en:A hospital visit
00:27:25.000                : en:Edgar's investigation stalls
00:27:48.000                : en:Bosch and Maddie at home
00:29:23.000                : en:Looking into 308
00:30:31.000                : en:Containing panic
00:30:54.000                : en:Canvassing the neighborhood
00:32:42.000                : en:Prepping for court
00:34:20.000                : en:Meeting with business partners
00:35:21.000                : en:An investment in the future of this city
00:36:04.000                : en:Detectives Crate and Barrel respond to a call
00:36:44.000                : en:Info on the 308 Squadron
00:37:27.000                : en:A secret meeting
00:37:55.000                : en:Undercover work
00:40:24.000                : en:Jun has some news
00:42:54.000                : en:Zero exposure
00:44:02.000                : en:Dinner interrupted
00:45:18.000                : en:An update on the investigation
00:46:15.000                : en:Driving home
00:46:39.000                : en:End Credits
                      
                                       
Поделись этим текстом, скопируй эту ссылку и отправь друзьям
RAW Paste Data
Последние Тексты