Текстовый хостинг - Получите доступ к сохраненным данным из любой точки мира через Интернет
avatar
Whosts.ru

Гость 78 2nd Apr, 2020

                                           
                         Общее
Полное имя:      D:\Moskovskie_svidanija_(V.Kacan,E.Ksenofontova,1995)_[IPTVRip,xvid,720x560].avi
Формат                                   : AVI
Формат/Информация                        : Audio Video Interleave
Размер файла                             : 712 Мбайт
Продолжительность                        : 40 м. 13 с.
Режим общего битрейта                    : Переменный
Общий поток                              : 2473 Кбит/сек

Видео
Идентификатор                            : 0
Формат                                   : MPEG-4 Visual
Профиль формата                          : Advanced Simple@L5
Настройки формата                        : BVOP2
Параметр BVOP формата                    : 2
Параметр QPel формата                    : Нет
Параметр GMC формата                     : Без точки перехода
Параметр матрицы формата                 : Default (MPEG)
Идентификатор кодека                     : XVID
Идентификатор кодека/Подсказка           : XviD
Продолжительность                        : 40 м. 13 с.
Битрейт                                  : 2217 Кбит/сек
Ширина                                   : 720 пикселей
Высота                                   : 560 пикселей
Соотношение сторон                       : 1,286
Частота кадров                           : 25,000 кадров/сек
Цветовое пространство                    : YUV
Субдискретизация насыщенности            : 4:2:0
Битовая глубина                          : 8 бит
Тип развёртки                            : Прогрессивная
Метод сжатия                             : С потерями
Бит/(Пиксели*Кадры)                      : 0.220
Размер потока                            : 638 Мбайт (90%)
Библиотека кодирования                   : XviD 65

Аудио
Идентификатор                            : 1
Формат                                   : MPEG Audio
Версия формата                           : Version 1
Профиль формата                          : Layer 3
Настройки формата                        : Joint stereo / MS Stereo
Идентификатор кодека                     : 55
Идентификатор кодека/Подсказка           : MP3
Продолжительность                        : 24 м. 8 с.
Продолжительность оригинала              : 41 м. 32 с.
Вид битрейта                             : Переменный
Битрейт                                  : 234 Кбит/сек
Каналы                                   : 2 канала
Частота                                  : 48,0 КГц
Метод сжатия                             : С потерями
Размер потока                            : 69,7 Мбайт (10%)
Выравнивание                             : Соединение по промежуткам
Продолжительность промежутка             : 24  мс. (0,60 видеокадр)
                      
                                       
Поделись этим текстом, скопируй эту ссылку и отправь друзьям
RAW Paste Data
Последние Тексты