Текстовый хостинг - Получите доступ к сохраненным данным из любой точки мира через Интернет
avatar
Whosts.ru

Гость 72 26th May, 2020

                                           
                         Общее
Уникальный идентификатор                 : 88297449778399186959268345756665940101 (0x426D786293066FEC296BBB3A4DEA8885)
Полное имя                               : D:\Загрузки\PrismcubeManager_0.0.20\Приключения кота в сапогах\Season 5\The Adventures of Puss in Boots - S05E00 «Puss in Book Trapped in an Epic Tale» «Кот в книге в ловушке эпической истории».mkv
Формат                                   : Matroska
Версия формата                           : Version 4
Размер файла                             : 787 Мбайт
Продолжительность                        : 21 м. 36 с.
Общий поток                              : 5 090 Кбит/сек
Программа кодирования                    : VideoReDo (Lavf57.71.100)
Библиотека кодирования                   : VideoReDo (Lavf57.71.100)
ErrorDetectionType                       : Per level 1

Видео
Идентификатор                            : 1
Формат                                   : AVC
Формат/Информация                        : Advanced Video Codec
Профиль формата                          : High@L4
Настройки формата                        : CABAC / 4 Ref Frames
Параметр CABAC формата                   : Да
Параметр RefFrames формата               : 4 кадра
Идентификатор кодека                     : V_MPEG4/ISO/AVC
Продолжительность                        : 21 м. 36 с.
Битрейт                                  : 4 797 Кбит/сек
Ширина                                   : 1 920 пикселей
Высота                                   : 1 080 пикселей
Соотношение сторон                       : 16:9
Режим частоты кадров                     : Постоянный
Частота кадров                           : 25,000 кадров/сек
Стандарт вещания                         : Component
Цветовое пространство                    : YUV
Субдискретизация насыщенности            : 4:2:0
Битовая глубина                          : 8 бит
Тип развёртки                            : Чересстрочная
Метод сохранения типа развёртки          : Раздельные поля
Порядок развёртки                        : Верхнее поле первое
Бит/(Пиксели*Кадры)                      : 0.093
Размер потока                            : 741 Мбайт (94%)
Default                                  : Нет
Forced                                   : Нет
Цветовой диапазон                        : Limited
Основные цвета                           : BT.709
Характеристики трансфера                 : BT.709
Коэффициенты матрицы                     : BT.709

Аудио
Идентификатор                            : 2
Формат                                   : MPEG Audio
Версия формата                           : Version 1
Профиль формата                          : Layer 2
Идентификатор кодека                     : A_MPEG/L2
Идентификатор кодека/Подсказка           : MP2
Продолжительность                        : 21 м. 36 с.
Вид битрейта                             : Постоянный
Битрейт                                  : 192 Кбит/сек
Каналы                                   : 2 канала
Частота                                  : 48,0 КГц
Метод сжатия                             : С потерями
Размер потока                            : 29,7 Мбайт (4%)
Язык                                     : Russian
Default                                  : Да
Forced                                   : Нет

Меню
00:00:00.000                             : :Chapter 1
                      
                                       
Поделись этим текстом, скопируй эту ссылку и отправь друзьям
RAW Paste Data
Последние Тексты