Текстовый хостинг - Получите доступ к сохраненным данным из любой точки мира через Интернет
avatar
Whosts.ru

Гость 28 17th May, 2020

                                           
                         General
Unique ID: 286283397863844296775932449411635752423 (0xD7602D4637C8DC25FEA6F969FC4E2DE7)
Complete name: D:The_Hatters_МТС_Live_02_04_2020_1080p.mkv
Format: Matroska
Format version: Version 4
File size: 6.57 GiB
Duration: 1 h 48 min
Overall bit rate mode: Variable
Overall bit rate: 8 640 kb/s
Encoded date: UTC 2020-05-16 19:01:06
Writing application: mkvmerge v44.0.0 ('Domino') 64-bit
Writing library: libebml v1.3.10 + libmatroska v1.5.2

Video
ID: 1
Format: AVC
Format/Info: Advanced Video Codec
Format profile: Main@L5
Format settings: CABAC / 4 Ref Frames
Format settings, CABAC: Yes
Format settings, ReFrames: 4 frames
Codec ID: V_MPEG4/ISO/AVC
Duration: 1 h 48 min
Bit rate mode: Variable
Bit rate: 8 449 kb/s
Maximum bit rate: 8 800 kb/s
Width: 1 920 pixels
Height: 1 080 pixels
Display aspect ratio: 16:9
Frame rate mode: Variable
Frame rate: 24.842 FPS
Original frame rate: 25.000 FPS
Standard: PAL
Color space: YUV
Chroma subsampling: 4:2:0
Bit depth: 8 bits
Scan type: Progressive
Bits/(Pixel*Frame): 0.164
Stream size: 6.43 GiB (98%)
Default: Yes
Forced: No
Color range: Limited
Color primaries: BT.709
Transfer characteristics: BT.709
Matrix coefficients: BT.709

Audio
ID: 2
Format: AAC LC
Format/Info: Advanced Audio Codec Low Complexity
Codec ID: A_AAC-2
Duration: 1 h 48 min
Bit rate: 192 kb/s
Channel(s): 2 channels
Channel layout: L R
Sampling rate: 48.0 kHz
Frame rate: 46.875 FPS (1024 SPF)
Compression mode: Lossy
Delay relative to video: 14 ms
Stream size: 147 MiB (2%)
Default: Yes
Forced: No
                      
                                       
Поделись этим текстом, скопируй эту ссылку и отправь друзьям
RAW Paste Data
Последние Тексты