Текстовый хостинг - Получите доступ к сохраненным данным из любой точки мира через Интернет
avatar
Whosts.ru

Гость 50 17th May, 2020

                                           
                         Уникальный идентификатор                 : 201982047325912117379087407515121018595 (0x97F453CB12129C57820915E169A8E6E3)
Полное имя                               : D:\Matroska\Тебе - атакующий класс!_Original.mkv
Формат                                   : Matroska
Версия формата                           : Version 4
Размер файла                             : 1,45 Гбайт
Продолжительность                        : 17 м. 8 с.
Режим общего битрейта                    : Переменный
Общий поток                              : 12,1 Мбит/сек
Программа кодирования                    : Lavf56.36.100
Библиотека кодирования                   : Lavf56.36.100

Видео
Идентификатор                            : 1
Формат                                   : AVC
Формат/Информация                        : Advanced Video Codec
Профиль формата                          : Baseline@L4
Настройки формата                        : 1 Ref Frames
Параметр CABAC формата                   : Нет
Параметр RefFrames формата               : 1 кадр
Параметр GOP формата                     : M=1, N=30
Идентификатор кодека                     : V_MPEG4/ISO/AVC
Продолжительность                        : 17 м. 8 с.
Вид битрейта                             : Переменный
Битрейт                                  : 11,7 Мбит/сек
Максимальный битрейт                     : 12,0 Мбит/сек
Ширина                                   : 1920 пикселей
Высота                                   : 1080 пикселей
Соотношение сторон                       : 16:9
Режим частоты кадров                     : Постоянный
Частота кадров                           : 30,000 кадров/сек
Цветовое пространство                    : YUV
Субдискретизация насыщенности            : 4:2:0
Битовая глубина                          : 8 бит
Тип развёртки                            : Прогрессивная
Бит/(Пиксели*Кадры)                      : 0.189
Размер потока                            : 1,41 Гбайт (97%)
Заголовок                                : VideoHandle
Язык                                     : English
Default                                  : Да
Forced                                   : Нет
Дата кодирования                         : UTC 2020-03-30 06:49:59

Аудио
Идентификатор                            : 2
Формат                                   : MPEG Audio
Версия формата                           : Version 1
Профиль формата                          : Layer 3
Настройки формата                        : Joint stereo / MS Stereo
Идентификатор кодека                     : A_MPEG/L3
Идентификатор кодека/Подсказка           : MP3
Продолжительность                        : 17 м. 8 с.
Вид битрейта                             : Постоянный
Битрейт                                  : 128 Кбит/сек
Каналы                                   : 2 канала
Частота                                  : 44,1 КГц
Метод сжатия                             : С потерями
Задержка видео                           : -25 мс.
Размер потока                            : 15,7 Мбайт (1%)
Заголовок                                : SoundHandle
Библиотека кодирования                   : LAMEU0€
Язык                                     : English
Default                                  : Да
Forced                                   : Нет
Дата кодирования                         : UTC 2020-03-30 06:49:59
                      
                                       
Поделись этим текстом, скопируй эту ссылку и отправь друзьям
RAW Paste Data
Последние Тексты