Текстовый хостинг - Получите доступ к сохраненным данным из любой точки мира через Интернет
avatar
Whosts.ru

Гость 67 24th Apr, 2020

                                           
                         Полное имя                               : D:\Верните плату за обучение 1963.avi
Формат                                   : AVI
Формат/Информация                        : Audio Video Interleave
Размер файла                             : 619 Мбайт
Продолжительность                        : 38 м. 16 с.
Общий поток                              : 2261 Кбит/сек
Программа кодирования                    : Lavf58.31.104

Видео
Идентификатор                            : 0
Формат                                   : xvid
Идентификатор кодека                     : xvid
Продолжительность                        : 38 м. 16 с.
Битрейт                                  : 2121 Кбит/сек
Ширина                                   : 640 пикселей
Высота                                   : 480 пикселей
Соотношение сторон                       : 4:3
Частота кадров                           : 25,000 кадров/сек
Тип развёртки                            : Прогрессивная
Бит/(Пиксели*Кадры)                      : 0.276
Размер потока                            : 581 Мбайт (94%)

Аудио
Идентификатор                            : 1
Формат                                   : MPEG Audio
Версия формата                           : Version 1
Профиль формата                          : Layer 3
Настройки формата                        : Joint stereo / MS Stereo
Идентификатор кодека                     : 55
Идентификатор кодека/Подсказка           : MP3
Продолжительность                        : 38 м. 16 с.
Вид битрейта                             : Постоянный
Битрейт                                  : 128 Кбит/сек
Каналы                                   : 2 канала
Частота                                  : 44,1 КГц
Метод сжатия                             : С потерями
Размер потока                            : 35,0 Мбайт (6%)
Выравнивание                             : Соединение по промежуткам
Продолжительность промежутка             : 26  мс. (0,65 видеокадр)
Время предзагрузки промежутка            : 26  мс.
                      
                                       
Поделись этим текстом, скопируй эту ссылку и отправь друзьям
RAW Paste Data
Последние Тексты