Текстовый хостинг - Получите доступ к сохраненным данным из любой точки мира через Интернет
avatar
Whosts.ru

Гость 139 29th Mar, 2020

                                           
                         Общее
Полное имя                               : D:\Дитя солнца (1957).avi
Формат                                   : AVI
Формат/Информация                        : Audio Video Interleave
Размер файла                             : 169 Мбайт
Продолжительность                        : 10 м. 17 с.
Общий поток                              : 2291 Кбит/сек
Программа кодирования                    : Lavf58.31.104

Видео
Идентификатор                            : 0
Формат                                   : xvid
Идентификатор кодека                     : xvid
Продолжительность                        : 10 м. 17 с.
Битрейт                                  : 2150 Кбит/сек
Ширина                                   : 1920 пикселей
Высота                                   : 1080 пикселей
Соотношение сторон                       : 16:9
Частота кадров                           : 30,000 кадров/сек
Тип развёртки                            : Прогрессивная
Бит/(Пиксели*Кадры)                      : 0.035
Размер потока                            : 158 Мбайт (94%)

Аудио
Идентификатор                            : 1
Формат                                   : MPEG Audio
Версия формата                           : Version 1
Профиль формата                          : Layer 3
Настройки формата                        : Joint stereo / MS Stereo
Идентификатор кодека                     : 55
Идентификатор кодека/Подсказка           : MP3
Продолжительность                        : 10 м. 17 с.
Вид битрейта                             : Постоянный
Битрейт                                  : 128 Кбит/сек
Каналы                                   : 2 канала
Частота                                  : 44,1 КГц
Метод сжатия                             : С потерями
Размер потока                            : 9,42 Мбайт (6%)
Выравнивание                             : Соединение по промежуткам
Продолжительность промежутка             : 26  мс. (0,78 видеокадр)
Время предзагрузки промежутка            : 26  мс.
Библиотека кодирования                   : LAME3.99 (alpha)
                      
                                       
Поделись этим текстом, скопируй эту ссылку и отправь друзьям
RAW Paste Data
Последние Тексты