Текстовый хостинг - Получите доступ к сохраненным данным из любой точки мира через Интернет
avatar
Whosts.ru

Гость 38 8th May, 2020

                                           
                         General
Полное имя                               : Y:\Transmission\Фильм “Шкварки“ (2013).mp4
Формат                                   : MPEG-4
Профиль формата                          : Base Media
Идентификатор кодека                     : isom (isom/iso2/avc1/mp41)
Размер файла                             : 1.13 GiB
Продолжительность                        : 1 h 20 min
Общий поток                              : 2 026 kb/s
Программа кодирования                    : Lavf58.33.100

Video
Идентификатор                            : 1
Формат                                   : AVC
Формат/Информация                        : Advanced Video Codec
Профиль формата                          : High@L4
Настройки формата                        : CABAC / 3 Ref Frames
Параметр CABAC формата                   : Yes
Параметр RefFrames формата               : 3 frames
Идентификатор кодека                     : avc1
Идентификатор кодека/Информация          : Advanced Video Coding
Продолжительность                        : 1 h 19 min
Битрейт                                  : 1 894 kb/s
Ширина                                   : 1 920 pixels
Высота                                   : 1 080 pixels
Соотношение сторон                       : 16:9
Режим частоты кадров                     : Constant
Частота кадров                           : 25.000 FPS
Цветовое пространство                    : YUV
Субдискретизация насыщенности            : 4:2:0
Битовая глубина                          : 8 bits
Тип развёртки                            : Progressive
Бит/(Пиксели*Кадры)                      : 0.037
Размер потока                            : 1.06 GiB (93%)
Codec configuration box                  : avcC

Audio
Идентификатор                            : 2
Формат                                   : AAC LC
Формат/Информация                        : Advanced Audio Codec Low Complexity
Идентификатор кодека                     : mp4a-40-2
Продолжительность                        : 1 h 20 min
Вид битрейта                             : Constant
Битрейт                                  : 126 kb/s
Каналы                                   : 2 channels
Channel layout                           : L R
Частота                                  : 44.1 kHz
Частота кадров                           : 43.066 FPS (1024 SPF)
Метод сжатия                             : Lossy
Размер потока                            : 71.9 MiB (6%)
Default                                  : Yes
Alternate group                          : 1
                      
                                       
Поделись этим текстом, скопируй эту ссылку и отправь друзьям
RAW Paste Data
Последние Тексты