Текстовый хостинг - Получите доступ к сохраненным данным из любой точки мира через Интернет
avatar
Whosts.ru

Гость 50 9th Oct, 2019

                                           
                         General
Unique ID                   : 188787385733184695387955142621839563866 (0x8E0720C00F846F1BBEEC44E51D211C5A)
Complete name               : F:\The_King's_Avatar_S01_[WEBRip_1080p]\The_King's_Avatar_S01E01_[WEBRip_1080p_h264_AC3].mkv
Format                      : Matroska
Format version              : Version 4
File size                   : 1.26 GiB
Duration                    : 44 min 57 s
Overall bit rate            : 4 009 kb/s
Encoded date                : UTC 2019-10-08 22:29:15
Writing application         : mkvmerge v38.0.0 ('The Silent Type') 64-bit
Writing library             : libebml v1.3.9 + libmatroska v1.5.2

Video
ID                          : 1
Format                      : AVC
Format/Info                 : Advanced Video Codec
Format profile              : High@L4
Format settings             : CABAC / 3 Ref Frames
Format settings, CABAC      : Yes
Format settings, ReFrames   : 3 frames
Codec ID                    : V_MPEG4/ISO/AVC
Duration                    : 44 min 57 s
Bit rate                    : 3 751 kb/s
Width                       : 1 920 pixels
Height                      : 1 080 pixels
Display aspect ratio        : 16:9
Frame rate mode             : Constant
Frame rate                  : 25.000 FPS
Color space                 : YUV
Chroma subsampling          : 4:2:0
Bit depth                   : 8 bits
Scan type                   : Progressive
Bits/(Pixel*Frame)          : 0.072
Stream size                 : 1.18 GiB (94%)
Title                       : WEBRip by xetrin
Language                    : Chinese
Default                     : Yes
Forced                      : No

Audio #1
ID                          : 2
Format                      : AC-3
Format/Info                 : Audio Coding 3
Commercial name             : Dolby Digital
Codec ID                    : A_AC3
Duration                    : 44 min 57 s
Bit rate mode               : Constant
Bit rate                    : 128 kb/s
Channel(s)                  : 2 channels
Channel layout              : L R
Sampling rate               : 48.0 kHz
Frame rate                  : 31.250 FPS (1536 SPF)
Bit depth                   : 16 bits
Compression mode            : Lossy
Stream size                 : 41.2 MiB (3%)
Title                       : [AniStar] Xelenum и Ruri
Language                    : Russian
Service kind                : Complete Main
Default                     : Yes
Forced                      : No

Audio #2
ID                          : 3
Format                      : E-AC-3
Format/Info                 : Enhanced AC-3
Commercial name             : Dolby Digital Plus
Codec ID                    : A_EAC3
Duration                    : 44 min 57 s
Bit rate mode               : Constant
Bit rate                    : 128 kb/s
Channel(s)                  : 2 channels
Channel layout              : L R
Sampling rate               : 48.0 kHz
Frame rate                  : 31.250 FPS (1536 SPF)
Compression mode            : Lossy
Stream size                 : 41.2 MiB (3%)
Title                       : Chinese
Language                    : Chinese
Service kind                : Complete Main
Default                     : No
Forced                      : No

Text #1
ID                          : 4
Format                      : ASS
Codec ID                    : S_TEXT/ASS
Codec ID/Info               : Advanced Sub Station Alpha
Duration                    : 40 min 57 s
Bit rate                    : 168 b/s
Count of elements           : 734
Compression mode            : Lossless
Stream size                 : 50.7 KiB (0%)
Title                       : [ФСГ ТаЛи] Лилия Миронова и Noel Korderry [Полные]
Language                    : Russian
Default                     : No
Forced                      : No

Text #2
ID                          : 5
Format                      : ASS
Codec ID                    : S_TEXT/ASS
Codec ID/Info               : Advanced Sub Station Alpha
Duration                    : 43 min 35 s
Bit rate                    : 104 b/s
Count of elements           : 591
Compression mode            : Lossless
Stream size                 : 33.3 KiB (0%)
Title                       : English
Language                    : English
Default                     : No
Forced                      : No
                      
                                       
Поделись этим текстом, скопируй эту ссылку и отправь друзьям
RAW Paste Data
Последние Тексты