Текстовый хостинг - Получите доступ к сохраненным данным из любой точки мира через Интернет
avatar
Whosts.ru

Гость 109 25th Mar, 2020

                                           
                         Общее
Полное имя                               : C:\Users\Mikhail Podolski\Downloads\GaribaldiSquare.mp4
Формат                                   : MPEG-4
Профиль формата                          : Base Media
Идентификатор кодека                     : isom (isom/iso2/avc1/mp41)
Размер файла                             : 601 Мбайт
Продолжительность                        : 1 ч. 14 м.
Общий поток                              : 1124 Кбит/сек
Программа кодирования                    : Lavf57.83.100

Видео
Идентификатор                            : 1
Формат                                   : AVC
Формат/Информация                        : Advanced Video Codec
Профиль формата                          : High@L3
Настройки формата                        : CABAC / 4 Ref Frames
Параметр CABAC формата                   : Да
Параметр RefFrames формата               : 4 кадра
Параметр GOP формата                     : M=1, N=75
Идентификатор кодека                     : avc1
Идентификатор кодека/Информация          : Advanced Video Coding
Продолжительность                        : 1 ч. 14 м.
Duration_FirstFrame                      : 46 мс.
Битрейт                                  : 1000 Кбит/сек
Ширина                                   : 656 пикселей
Высота                                   : 480 пикселей
Соотношение сторон                       : 4:3
Соотношение сторон в оригинале           : 4:3
Режим частоты кадров                     : Постоянный
Частота кадров                           : 25,000 кадров/сек
Цветовое пространство                    : YUV
Субдискретизация насыщенности            : 4:2:0
Битовая глубина                          : 8 бит
Тип развёртки                            : Прогрессивная
Бит/(Пиксели*Кадры)                      : 0.127
Размер потока                            : 531 Мбайт (88%)
Библиотека кодирования                   : x264 core 152 r2851 ba24899
Настройки программы                      : cabac=1 / ref=4 / deblock=1:2:2 / analyse=0x3:0x113 / me=hex / subme=2 / psy=1 / psy_rd=1.00:0.00 / mixed_ref=1 / me_range=16 / chroma_me=1 / trellis=0 / 8x8dct=1 / cqm=0 / deadzone=21,11 / fast_pskip=1 / chroma_qp_offset=0 / threads=15 / lookahead_threads=3 / sliced_threads=0 / nr=0 / decimate=1 / interlaced=0 / bluray_compat=0 / constrained_intra=0 / bframes=0 / weightp=2 / keyint=75 / keyint_min=7 / scenecut=0 / intra_refresh=0 / rc_lookahead=40 / rc=abr / mbtree=1 / bitrate=1000 / ratetol=1.0 / qcomp=0.60 / qpmin=10 / qpmax=51 / qpstep=4 / ip_ratio=0.91 / aq=1:1.00
Дата пометки                             : UTC 2018-01-16 11:13:31
Codec configuration box                  : avcC

Аудио
Идентификатор                            : 2
Формат                                   : AAC LC
Формат/Информация                        : Advanced Audio Codec Low Complexity
Идентификатор кодека                     : mp4a-40-2
Продолжительность                        : 1 ч. 14 м.
Duration_LastFrame                       : -22 мс.
Вид битрейта                             : Постоянный
Битрейт                                  : 128 Кбит/сек
Каналы                                   : 2 канала
ChannelLayout                            : L R
Частота                                  : 44,1 КГц
Частота кадров                           : 43,066 кадра/сек (1024 SPF)
Метод сжатия                             : С потерями
Размер потока                            : 68,4 Мбайт (11%)
Default                                  : Да
AlternateGroup/String                    : 1
Дата пометки                             : UTC 2018-01-16 11:13:31
                      
                                       
Поделись этим текстом, скопируй эту ссылку и отправь друзьям
RAW Paste Data
Последние Тексты